<?xml version="1.0" standalone="no"?>
<!DOCTYPE svg PUBLIC "-//W3C//DTD SVG 1.1//EN" "http://www.w3.org/Graphics/SVG/1.1/DTD/svg11.dtd" >
<svg xmlns="http://www.w3.org/2000/svg">
<metadata>
This is a custom SVG webfont generated by Font Squirrel.
Copyright   : Florian Klauer
Designer    : Florian Klauer
Foundry     : Florian Klauer
</metadata>
<defs>
<font id="FlorinSansDEMO" horiz-adv-x="974" >
<font-face units-per-em="2048" ascent="1536" descent="-512" />
<missing-glyph horiz-adv-x="512" />
<glyph unicode=" "  horiz-adv-x="512" />
<glyph unicode="&#x09;" horiz-adv-x="512" />
<glyph unicode="&#xa0;" horiz-adv-x="512" />
<glyph unicode="0" horiz-adv-x="1075" d="M164 403v629q0 119 32.5 205t72.5 127t101.5 62.5t92.5 24.5t74 3t73.5 -3t93 -24.5t102.5 -62.5t72.5 -127t32.5 -205v-629q0 -119 -32.5 -204.5t-72.5 -126.5t-102.5 -62.5t-93 -24.5t-73.5 -3t-74 3t-92.5 24.5t-101.5 62.5t-72.5 126.5t-32.5 204.5zM276 403 q0 -319 261 -319q262 0 262 319v629q0 319 -262 320q-260 0 -261 -320v-629z" />
<glyph unicode="1" horiz-adv-x="892" d="M113 1223v108l331 103h113v-1332h234v-102h-629v102h282v1219z" />
<glyph unicode="2" horiz-adv-x="1009" d="M164 1331v103q170 20 305 20q47 0 92 -7t98.5 -30.5t93.5 -62.5t66.5 -108.5t26.5 -162.5q0 -129 -38 -212t-90 -123.5t-159 -104.5l-43 -25q-154 -90 -195.5 -149t-41.5 -158v-209h563v-102h-676v307q0 61 6 97t31.5 91.5t90 109.5t169.5 112q178 98 223 167.5t45 198.5 q0 123 -67.5 196t-194.5 73q-57 0 -134 -5.5t-124 -11.5z" />
<glyph unicode="3" horiz-adv-x="1007" d="M164 0v102q176 -20 303 -20q125 0 187.5 74.5t62.5 199.5q0 166 -45 256t-172 90h-240v103h240q111 0 171 84t60 201q0 123 -66.5 191.5t-195.5 68.5q-57 0 -133 -5.5t-123 -9.5l-47 -4v103q170 18 305 18q49 0 92 -6t97.5 -28.5t92.5 -59.5t64.5 -106.5t26.5 -161.5 q0 -70 -14.5 -130.5t-34 -96.5t-40 -62.5t-34.5 -36.5t-19 -10q4 0 16.5 -9.5t32 -38t37 -69.5t29.5 -116t12 -165q0 -113 -35.5 -192.5t-95 -116.5t-115 -51t-114.5 -14z" />
<glyph unicode="4" horiz-adv-x="1110" d="M133 324v102q236 346 236 1008h112q0 -221 -24.5 -407.5t-64.5 -307.5t-68.5 -184.5t-59.5 -108.5h461v397h111v-397h151v-102h-151v-324h-111v324h-592z" />
<glyph unicode="5" horiz-adv-x="1021" d="M164 676v758h661v-103h-549v-540q102 47 275 47q139 0 223 -105.5t84 -386.5q0 -113 -38 -190.5t-100.5 -112.5t-117.5 -48t-117 -13l-305 18v104q176 -20 303 -20t194.5 71.5t67.5 192.5q0 188 -40.5 287.5t-157.5 99.5q-170 0 -271 -59h-112z" />
<glyph unicode="6" horiz-adv-x="1046" d="M164 403v684q0 113 37 192t98 113.5t115.5 48t115.5 13.5q59 0 132 -5t116 -11l41 -4v-101q-160 20 -287 21q-125 0 -190.5 -72t-65.5 -195v-294q147 55 306 55q137 0 219 -93t82 -352q0 -119 -31 -204.5t-70 -126.5t-98 -62.5t-89 -24.5t-71 -3t-71.5 3t-90 24.5 t-98.5 62.5t-69.5 126.5t-30.5 204.5zM276 403q0 -180 68 -249.5t180 -69.5q233 0 248 281q0 199 -38 289.5t-156 90.5q-78 0 -152 -13t-105.5 -24.5t-44.5 -19.5v-285z" />
<glyph unicode="7" horiz-adv-x="952" d="M133 1331v103h707v-183q0 -92 -40 -191t-96.5 -191.5t-111.5 -186.5t-95 -208t-40 -226v-248h-113v248q0 115 40 234.5t96.5 219t111.5 191.5t95 183t40 163v92h-594z" />
<glyph unicode="8" horiz-adv-x="1073" d="M164 391q0 272 160 367q-154 88 -154 323q0 104 30.5 180t69.5 112t99.5 55.5t91.5 21.5t76 2q29 0 48 -1t61 -8t72 -19.5t67.5 -40t61 -65.5t40 -99.5t16.5 -137.5q0 -238 -149 -325q156 -94 155 -365q0 -86 -17.5 -154.5t-40 -111.5t-63 -72.5t-68.5 -44t-73 -21.5 t-61 -7h-49h-50q-16 0 -61 7t-72.5 21.5t-68.5 44t-63.5 72.5t-40 111.5t-17.5 154.5zM276 391q0 -178 72 -244.5t188.5 -66.5t189.5 66.5t73 244.5q0 311 -262 311q-261 0 -261 -311zM283 1081q0 -270 254 -270q115 0 185.5 58.5t70.5 211.5q0 268 -256 269 q-254 -1 -254 -269z" />
<glyph unicode="9" horiz-adv-x="1046" d="M164 1032q0 119 30.5 205t69.5 127t98.5 62.5t89 24.5t70.5 3t72 -3t90 -24.5t98 -62.5t70 -127t31 -205v-684q0 -113 -37 -191.5t-98.5 -113.5t-115.5 -48t-116 -13q-59 0 -132 5t-114 9l-43 6v100q160 -20 287 -20q125 0 190.5 71.5t65.5 194.5v295q-147 -55 -305 -55 q-137 0 -219 93t-82 351zM274 1071q0 -199 38 -290t157 -91q78 0 151.5 13.5t105.5 24.5t44 20v284q0 180 -67.5 250t-180.5 70q-234 0 -248 -281z" />
<glyph unicode="A" horiz-adv-x="1120" d="M51 0l449 1434h123l446 -1434h-121l-119 389h-538l-119 -389h-121zM324 492h473l-236 765z" />
<glyph unicode="B" horiz-adv-x="1058" d="M164 0v1434h112q166 10 226 10q182 0 288.5 -92t106.5 -291q0 -225 -143 -293l-39 -12q8 -2 23.5 -8.5t53 -33t67.5 -62.5t53.5 -102.5t23.5 -148.5q0 -207 -109.5 -309t-273.5 -102l-277 10h-112zM276 106q174 -10 265 -10q119 0 200.5 76t81.5 229q0 152 -86 224.5 t-200 72.5h-261v-592zM276 803h246q115 0 188.5 64.5t73.5 193.5q0 137 -72.5 208.5t-211.5 71.5l-224 -10v-528z" />
<glyph unicode="C" horiz-adv-x="1007" d="M164 350v733q0 92 26.5 162t65.5 109t93 62.5t98.5 30.5t91.5 7q59 0 136 -5t124 -11l45 -4v-103q-176 20 -303 20.5t-196 -72.5t-69 -196v-731q0 -123 69 -196.5t196 -73.5q57 0 133 5t123 11l47 4v-102q-170 -18 -305 -18q-61 0 -117.5 13t-119 49t-100.5 114.5 t-38 191.5z" />
<glyph unicode="D" horiz-adv-x="1118" d="M164 0v1434h112q170 16 306 16q61 0 116.5 -13.5t118 -48t100 -112.5t37.5 -193v-733q0 -113 -37.5 -191.5t-100 -112.5t-118 -47t-116.5 -13l-306 14h-112zM276 102q176 -16 303.5 -16t195 71.5t67.5 194.5v731q0 123 -67.5 194t-194.5 71l-304 -17v-1229z" />
<glyph unicode="E" horiz-adv-x="946" d="M164 0v1434h618v-103h-506v-524h506v-102h-506v-603h506v-102h-618z" />
<glyph unicode="F" horiz-adv-x="892" d="M164 0v1434h616v-103h-504v-524h504v-102h-504v-705h-112z" />
<glyph unicode="G" horiz-adv-x="1118" d="M164 350v733q0 113 47 193t123 115.5t139.5 49t126.5 13.5l313 -20v-105q-186 20 -313 21q-150 0 -237 -73t-87 -194v-731q0 -123 68 -194.5t195 -71.5l303 16v551h-189v103h301v-756h-112q-168 -14 -303 -14q-47 0 -91.5 6t-98.5 29.5t-93 61.5t-65.5 106.5t-26.5 160.5 z" />
<glyph unicode="H" horiz-adv-x="1097" d="M164 0v1434h112v-627h545v627h113v-1434h-113v705h-545v-705h-112z" />
<glyph unicode="I" horiz-adv-x="733" d="M82 0v96h227v1243h-227v95h569v-95h-229v-1243h229v-96h-569z" />
<glyph unicode="J" horiz-adv-x="806" d="M31 0v100q135 -20 264 -20q123 0 182.5 72.5t59.5 197.5v1084h106v-1084q0 -115 -34 -192.5t-91 -113.5t-110.5 -49t-112.5 -13t-126 5t-103 9z" />
<glyph unicode="K" horiz-adv-x="1042" d="M164 0v1434h112v-1434h-112zM276 756l492 678h139l-487 -678l541 -756h-140z" />
<glyph unicode="L" horiz-adv-x="845" d="M164 0v1434h112v-1332h508v-102h-620z" />
<glyph unicode="M" horiz-adv-x="1429" d="M164 0v1434h112l439 -969l438 969h113v-1434h-113v1159l-387 -837h-51h-51l-388 837v-1159h-112z" />
<glyph unicode="N" horiz-adv-x="1175" d="M164 0v1434h112l623 -1205v1205h113v-1434h-113l-623 1186v-1186h-112z" />
<glyph unicode="O" horiz-adv-x="1116" d="M154 401v631q0 119 35.5 205t79.5 127t110.5 62.5t100.5 24.5t77 3q29 0 50.5 -1t67.5 -9t78.5 -22.5t74.5 -46.5t70 -75t46.5 -112.5t18.5 -155.5v-631q0 -100 -22.5 -177t-64.5 -120t-82 -70.5t-94.5 -37.5t-81 -13t-61.5 -3q-43 0 -77 3t-100.5 25.5t-110.5 62.5 t-79.5 125.5t-35.5 204.5zM266 403q0 -176 85 -247.5t206 -71.5t207 71.5t86 247.5v627q0 176 -86 248t-207 72t-206 -72t-85 -248v-627z" />
<glyph unicode="P" horiz-adv-x="968" d="M164 0v1434h112q166 10 226 10q178 0 286.5 -99.5t108.5 -300t-108.5 -300t-286.5 -99.5l-226 10v-655h-112zM276 758q121 -10 222 -10q137 0 211.5 78.5t74.5 218t-74.5 218t-211.5 78.5l-222 -10v-573z" />
<glyph unicode="Q" horiz-adv-x="1165" d="M164 401v631q0 86 18.5 155.5t46 112.5t69.5 75t75 46.5t79 22.5t67.5 9t49.5 1q43 0 77 -3t100.5 -24.5t110.5 -62.5t80 -127t36 -205v-631q0 -248 -148 -354l176 -176l-73 -72l-201 201q-66 -20 -158 -20q-35 0 -61.5 3t-80.5 13t-94 37.5t-82 70.5t-64.5 120 t-22.5 177zM276 403q0 -176 86.5 -247.5t207 -71.5t205.5 71.5t85 247.5v627q0 176 -85 248t-205.5 72t-207 -72t-86.5 -248v-627z" />
<glyph unicode="R" horiz-adv-x="1046" d="M164 0v1434h112q166 10 226 10q180 0 287.5 -99.5t107.5 -300.5q0 -166 -74.5 -263t-206.5 -124l328 -657h-123l-321 645l-224 10v-655h-112zM276 758q121 -10 224 -10q137 0 210.5 78.5t73.5 218t-73.5 218t-210.5 78.5l-224 -10v-573z" />
<glyph unicode="S" horiz-adv-x="1017" d="M154 0v117q25 -2 63.5 -6.5t130.5 -10.5t148 -6q113 2 183.5 60.5t70.5 218.5q0 131 -63.5 200.5t-188.5 114.5q-4 2 -45 15.5t-48.5 17.5t-43 19.5t-47 23.5t-40 28.5t-38 37t-29 44t-26.5 57.5t-14 68.5t-7 81.5v17q0 66 14 120q16 60 39 98t61.5 65.5t67.5 40t74 20.5 t63.5 9t50.5 1q23 1 46 1q56 0 108 -4q72 -5 102 -11l33 -6v-113q-18 2 -48 6t-105.5 9t-130.5 5q-57 0 -96.5 -9t-81.5 -32.5t-63.5 -77t-21.5 -135.5q0 -55 18.5 -99t40 -70.5t64.5 -53t67.5 -37t76.5 -28.5q139 -53 196 -103q123 -109 127 -319v-15q0 -101 -25 -176 q-28 -80 -63 -117.5t-92 -59t-90 -24.5t-80 -3h-14q-21 -1 -43 -1q-55 0 -117 4q-86 5 -135 11z" />
<glyph unicode="T" horiz-adv-x="921" d="M41 1331v103h840v-103h-363v-1331h-112v1331h-365z" />
<glyph unicode="U" horiz-adv-x="1138" d="M164 401v1031h112v-1031q0 -176 86.5 -246.5t207 -70.5t206.5 70.5t86 246.5v1031h113v-1031q0 -86 -18.5 -155.5t-46 -112.5t-69.5 -74.5t-75 -46t-79 -22.5t-67.5 -9t-50 -1t-50 1t-67.5 9t-79 22.5t-75 46t-69.5 74.5t-46 112.5t-18.5 155.5z" />
<glyph unicode="V" horiz-adv-x="1103" d="M82 1434h117l354 -1321l352 1321h117l-383 -1434h-174z" />
<glyph unicode="W" horiz-adv-x="1761" d="M123 1434h117l272 -1321l293 1321h151l293 -1321l273 1321h116l-301 -1434h-174l-282 1266l-283 -1266h-174z" />
<glyph unicode="X" horiz-adv-x="1157" d="M113 0l401 756l-360 678h127l297 -557l296 557h130l-361 -678l401 -756h-129l-337 635l-338 -635h-127z" />
<glyph unicode="Y" horiz-adv-x="1064" d="M82 1434h125l325 -699l326 699h125l-393 -846v-588h-113v588z" />
<glyph unicode="Z" horiz-adv-x="976" d="M133 0v102l588 1229h-567v103h690v-103l-588 -1229h561v-102h-684z" />
<glyph unicode="a" d="M154 274q0 156 86 233t241 77q29 0 56.5 -1t48 -1t39 -2t32 -3.5t22.5 -1.5t13 -2h6v5v4v2v4v4v4v4v4v2v4v4v4v5v4v4v4v2v4v4v4v4v4v5v4v16q0 104 -43 167.5t-133 63.5q-92 0 -163.5 -6t-96.5 -10l-26 -6v110q166 18 286.5 18.5t204.5 -73.5t84 -264v-682h-113l-14 -2 q-16 -2 -42 -4t-57.5 -5t-73.5 -5t-81 -2q-119 0 -197.5 72.5t-78.5 219.5zM266 274q0 -94 48 -141t112 -47q37 0 78 2t73.5 4t60.5 5t44 5l16 2v367h-6q-6 2 -16 3t-24.5 3t-34 3t-40 2t-46 2t-52.5 1q-98 0 -155.5 -54.5t-57.5 -156.5z" />
<glyph unicode="b" d="M164 0v1434h112v-433q125 20 271 21q119 0 196.5 -72.5t77.5 -220.5v-455q0 -147 -77.5 -219.5t-196.5 -72.5l-271 18h-112zM276 104q141 -18 273 -18q66 0 113 47t47 141v455q0 94 -47.5 140t-112.5 46q-57 0 -126 -4t-108 -8l-39 -4v-795z" />
<glyph unicode="c" horiz-adv-x="851" d="M154 274v455q0 147 77.5 220t196.5 73q66 0 133.5 -5t102.5 -9l34 -7v-102q-139 16 -272 16q-63 0 -111.5 -46t-48.5 -140v-455q0 -94 48 -141t112 -47q59 0 127 4t106 8l39 6v-104q-125 -18 -270 -18q-119 0 -196.5 72.5t-77.5 219.5z" />
<glyph unicode="d" d="M154 274v455q0 147 78.5 221t195.5 74q66 0 133.5 -5t102.5 -11l34 -4v430h113v-1434h-113q-125 -18 -270 -18q-117 0 -195.5 72.5t-78.5 219.5zM266 274q0 -94 48 -141t112 -47q59 0 127 4t106 8l39 6v795q-139 18 -272 19q-63 0 -111.5 -47.5t-48.5 -141.5v-455z" />
<glyph unicode="e" horiz-adv-x="962" d="M154 274v269v57q0 135 30.5 225t84 130t102.5 54.5t110 14.5q328 0 328 -424v-57v-103h-543v-166q0 -92 65.5 -140t135.5 -48q59 0 137 4t127 8l49 6v-104q-166 -18 -311 -18q-123 0 -219 73.5t-96 218.5zM266 543h432v57q0 174 -56 243.5t-161 76.5q-102 -6 -158.5 -76 t-56.5 -244v-57z" />
<glyph unicode="f" horiz-adv-x="653" d="M82 901v103h135v194q0 131 45 193.5t152 62.5q41 0 90 -5t78 -11l30 -4v-103q-106 18 -182 19q-57 0 -78.5 -39t-21.5 -113v-194h245v-103h-245v-901h-113v901h-135z" />
<glyph unicode="g" horiz-adv-x="985" d="M164 274v455q0 147 79 221t195 74q66 0 133.5 -5t102.5 -11l35 -4h112v-1086q0 -190 -84 -264t-205 -74l-329 19v114q121 -16 329 -16q176 0 177 221v82h-9q-8 -2 -21 -4t-31.5 -3t-42 -3t-49.5 -4t-57.5 -3t-60.5 -1q-117 0 -195.5 72.5t-78.5 219.5zM276 274 q0 -94 48.5 -141t111.5 -47q37 0 78 2t74 4t60.5 5t43.5 5l17 2v797l-17 2q-16 2 -43.5 4t-60.5 4t-74 4.5t-78 2.5q-63 0 -111.5 -47.5t-48.5 -141.5v-455z" />
<glyph unicode="h" d="M164 0v1434h112v-430q127 20 271 20q119 0 196.5 -73.5t77.5 -221.5v-729h-112v729q0 94 -47.5 141.5t-112.5 47.5q-27 0 -56.5 -1.5t-55 -2.5t-50.5 -3t-44 -4t-34.5 -3t-23.5 -3h-9v-901h-112z" />
<glyph unicode="i" horiz-adv-x="464" d="M174 1264v170h117v-170h-117zM176 0v1004h113v-1004h-113z" />
<glyph unicode="j" horiz-adv-x="458" d="M-102 -299q106 -14 182 -14q100 0 100 151v1166h113v-1166q0 -131 -46 -194.5t-153 -63.5q-39 0 -88 5t-80 9l-28 5v102zM178 1264v170h117v-170h-117z" />
<glyph unicode="k" horiz-adv-x="868" d="M164 0v1434h112v-1434h-112zM276 555l386 449h139l-381 -449l397 -555h-137z" />
<glyph unicode="l" horiz-adv-x="440" d="M164 0v1434h112v-1434h-112z" />
<glyph unicode="m" horiz-adv-x="1529" d="M164 0v1004h112q125 20 271 20q133 0 207 -86q143 86 338 86q117 0 195.5 -72.5t78.5 -220.5v-731h-113v731q0 94 -48 140.5t-111 46.5q-156 0 -291 -68q18 -49 18 -119v-731h-112v731q0 94 -48.5 140.5t-111.5 46.5q-37 0 -78 -2.5t-73.5 -5.5t-60.5 -6t-44 -5l-17 -2 v-897h-112z" />
<glyph unicode="n" horiz-adv-x="983" d="M164 0v1004h112q125 20 269 20q119 0 196.5 -72.5t77.5 -220.5v-731h-110v731q-2 94 -49.5 140.5t-110.5 46.5q-27 0 -56.5 -1.5t-55 -3.5t-50.5 -4t-44 -4t-34.5 -4t-23.5 -4h-9v-897h-112z" />
<glyph unicode="o" horiz-adv-x="997" d="M154 401v201q0 102 12 177t41 120t55.5 71.5t74.5 38t77.5 13.5t85.5 2q57 0 86.5 -2t78 -13.5t74 -38t53 -71.5t40 -119.5t12.5 -177.5v-201q0 -102 -12.5 -176.5t-40 -120t-53 -72t-74 -37.5t-78 -13t-86.5 -2q-55 0 -85 2t-78 13t-74.5 37.5t-55.5 72t-41 120 t-12 176.5zM266 408q0 -115 14.5 -183.5t50.5 -98.5t69.5 -37t99.5 -7q59 0 95 9t70.5 40t50 97.5t15.5 172.5v201q0 106 -15.5 173t-50 97.5t-70.5 40t-95 9.5q-63 0 -98 -8.5t-71 -39t-50.5 -97t-14.5 -175.5v-194z" />
<glyph unicode="p" d="M164 -401v1405h112q127 20 271 20q119 0 196.5 -72.5t77.5 -220.5v-2v-455q0 -147 -77.5 -219.5t-196.5 -72.5l-271 18v-401h-112zM276 104l9 -2q8 0 23.5 -2t34.5 -4t44 -3t50.5 -3t55 -3t56.5 -1q66 0 113 47t47 141v455v2q0 94 -47.5 141.5t-112.5 47.5 q-27 0 -56.5 -1t-55 -3.5t-50.5 -4.5t-44 -3t-34.5 -3t-23.5 -4h-9v-797z" />
<glyph unicode="q" d="M154 276v453v2q0 147 78.5 220t195.5 73q66 0 133.5 -5t102.5 -11l34 -4h113v-1405h-113v401q-125 -18 -270 -18q-117 0 -195.5 73.5t-78.5 220.5zM266 276q0 -94 48 -142t112 -48q59 0 127 4t106 8l39 6v797q-139 18 -272 19q-63 0 -111.5 -47.5t-48.5 -141.5v-2v-453z " />
<glyph unicode="r" horiz-adv-x="626" d="M164 0v1004h112q125 20 269 20v-106q-37 0 -77 -2.5t-73 -4.5t-59.5 -4t-42.5 -4l-17 -2v-901h-112z" />
<glyph unicode="s" horiz-adv-x="907" d="M143 0v106q154 -23 310 -22q84 0 141 37t57 127t-47 129t-164 80q-4 2 -43 16t-47 17.5t-42 18.5t-45 24.5t-35.5 28t-34 35.5t-22.5 42t-18.5 53.5t-5.5 63.5q0 68 23 118t55.5 78.5t78.5 45t84 21.5t79 5q53 0 116.5 -5t100.5 -11l39 -4v-101q-96 18 -252 19 q-111 0 -161 -46.5t-50 -119.5q0 -63 41 -100.5t150 -75.5q78 -27 109.5 -39.5t81.5 -41t69.5 -57t36 -77t16.5 -113.5q0 -270 -311 -270q-72 0 -149 5t-120 9z" />
<glyph unicode="t" horiz-adv-x="714" d="M92 901v103h133v430h113v-430h248v-103h-248v-663q0 -152 100 -152q35 0 81 4t75 8l29 4v-102q-111 -18 -199 -18q-109 0 -154 62t-45 194v663h-133z" />
<glyph unicode="u" horiz-adv-x="985" d="M164 274v730h112v-730q0 -94 48.5 -141t111.5 -47q27 0 56.5 1t55 3t50.5 5t44.5 5t34.5 4t23 2l9 3v895h112v-1004h-112q-125 -18 -271 -18q-117 0 -194.5 72.5t-79.5 219.5z" />
<glyph unicode="v" horiz-adv-x="966" d="M82 1004h121l280 -875l281 875h121l-334 -1004h-135z" />
<glyph unicode="w" horiz-adv-x="1447" d="M102 1004h121l221 -871l220 871h122l220 -871l219 871h121l-271 -1004h-141l-209 831l-211 -831h-141z" />
<glyph unicode="x" horiz-adv-x="1036" d="M113 0l340 526l-308 478h127l246 -375l246 375h127l-307 -478l340 -526h-127l-279 426l-278 -426h-127z" />
<glyph unicode="y" horiz-adv-x="1007" d="M102 1004h121l283 -875l278 875h121l-463 -1405h-116l123 366z" />
<glyph unicode="z" horiz-adv-x="952" d="M164 0v102l495 799h-487v103h610v-103l-495 -799h501v-102h-624z" />
<glyph unicode="&#xaa;" d="M154 274q0 156 86 233t241 77q29 0 56.5 -1t48 -1t39 -2t32 -3.5t22.5 -1.5t13 -2h6v5v4v2v4v4v4v4v4v2v4v4v4v5v4v4v4v2v4v4v4v4v4v5v4v16q0 104 -43 167.5t-133 63.5q-92 0 -163.5 -6t-96.5 -10l-26 -6v110q166 18 286.5 18.5t204.5 -73.5t84 -264v-682h-113l-14 -2 q-16 -2 -42 -4t-57.5 -5t-73.5 -5t-81 -2q-119 0 -197.5 72.5t-78.5 219.5zM266 274q0 -94 48 -141t112 -47q37 0 78 2t73.5 4t60.5 5t44 5l16 2v367h-6q-6 2 -16 3t-24.5 3t-34 3t-40 2t-46 2t-52.5 1q-98 0 -155.5 -54.5t-57.5 -156.5z" />
<glyph unicode="&#xb2;" horiz-adv-x="1009" d="M164 1331v103q170 20 305 20q47 0 92 -7t98.5 -30.5t93.5 -62.5t66.5 -108.5t26.5 -162.5q0 -129 -38 -212t-90 -123.5t-159 -104.5l-43 -25q-154 -90 -195.5 -149t-41.5 -158v-209h563v-102h-676v307q0 61 6 97t31.5 91.5t90 109.5t169.5 112q178 98 223 167.5t45 198.5 q0 123 -67.5 196t-194.5 73q-57 0 -134 -5.5t-124 -11.5z" />
<glyph unicode="&#xb3;" horiz-adv-x="1007" d="M164 0v102q176 -20 303 -20q125 0 187.5 74.5t62.5 199.5q0 166 -45 256t-172 90h-240v103h240q111 0 171 84t60 201q0 123 -66.5 191.5t-195.5 68.5q-57 0 -133 -5.5t-123 -9.5l-47 -4v103q170 18 305 18q49 0 92 -6t97.5 -28.5t92.5 -59.5t64.5 -106.5t26.5 -161.5 q0 -70 -14.5 -130.5t-34 -96.5t-40 -62.5t-34.5 -36.5t-19 -10q4 0 16.5 -9.5t32 -38t37 -69.5t29.5 -116t12 -165q0 -113 -35.5 -192.5t-95 -116.5t-115 -51t-114.5 -14z" />
<glyph unicode="&#xb9;" horiz-adv-x="892" d="M113 1223v108l331 103h113v-1332h234v-102h-629v102h282v1219z" />
<glyph unicode="&#xba;" horiz-adv-x="997" d="M154 401v201q0 102 12 177t41 120t55.5 71.5t74.5 38t77.5 13.5t85.5 2q57 0 86.5 -2t78 -13.5t74 -38t53 -71.5t40 -119.5t12.5 -177.5v-201q0 -102 -12.5 -176.5t-40 -120t-53 -72t-74 -37.5t-78 -13t-86.5 -2q-55 0 -85 2t-78 13t-74.5 37.5t-55.5 72t-41 120 t-12 176.5zM266 408q0 -115 14.5 -183.5t50.5 -98.5t69.5 -37t99.5 -7q59 0 95 9t70.5 40t50 97.5t15.5 172.5v201q0 106 -15.5 173t-50 97.5t-70.5 40t-95 9.5q-63 0 -98 -8.5t-71 -39t-50.5 -97t-14.5 -175.5v-194z" />
<glyph unicode="&#x152;" horiz-adv-x="2062" d="M1280 0v1434h618v-103h-506v-524h506v-102h-506v-603h506v-102h-618zM154 401v631q0 119 35.5 205t79.5 127t110.5 62.5t100.5 24.5t77 3q29 0 50.5 -1t67.5 -9t78.5 -22.5t74.5 -46.5t70 -75t46.5 -112.5t18.5 -155.5v-631q0 -100 -22.5 -177t-64.5 -120t-82 -70.5 t-94.5 -37.5t-81 -13t-61.5 -3q-43 0 -77 3t-100.5 25.5t-110.5 62.5t-79.5 125.5t-35.5 204.5zM266 403q0 -176 85 -247.5t206 -71.5t207 71.5t86 247.5v627q0 176 -86 248t-207 72t-206 -72t-85 -248v-627z" />
<glyph unicode="&#x153;" horiz-adv-x="1959" d="M1151 274v269v57q0 135 30.5 225t84 130t102.5 54.5t110 14.5q328 0 328 -424v-57v-103h-543v-166q0 -92 65.5 -140t135.5 -48q59 0 137 4t127 8l49 6v-104q-166 -18 -311 -18q-123 0 -219 73.5t-96 218.5zM1263 543h432v57q0 174 -56 243.5t-161 76.5 q-102 -6 -158.5 -76t-56.5 -244v-57zM154 401v201q0 102 12 177t41 120t55.5 71.5t74.5 38t77.5 13.5t85.5 2q57 0 86.5 -2t78 -13.5t74 -38t53 -71.5t40 -119.5t12.5 -177.5v-201q0 -102 -12.5 -176.5t-40 -120t-53 -72t-74 -37.5t-78 -13t-86.5 -2q-55 0 -85 2t-78 13 t-74.5 37.5t-55.5 72t-41 120t-12 176.5zM266 408q0 -115 14.5 -183.5t50.5 -98.5t69.5 -37t99.5 -7q59 0 95 9t70.5 40t50 97.5t15.5 172.5v201q0 106 -15.5 173t-50 97.5t-70.5 40t-95 9.5q-63 0 -98 -8.5t-71 -39t-50.5 -97t-14.5 -175.5v-194z" />
<glyph unicode="&#x2000;" horiz-adv-x="727" />
<glyph unicode="&#x2001;" horiz-adv-x="1454" />
<glyph unicode="&#x2002;" horiz-adv-x="727" />
<glyph unicode="&#x2003;" horiz-adv-x="1454" />
<glyph unicode="&#x2004;" horiz-adv-x="483" />
<glyph unicode="&#x2005;" horiz-adv-x="362" />
<glyph unicode="&#x2006;" horiz-adv-x="241" />
<glyph unicode="&#x2007;" horiz-adv-x="241" />
<glyph unicode="&#x2008;" horiz-adv-x="180" />
<glyph unicode="&#x2009;" horiz-adv-x="290" />
<glyph unicode="&#x200a;" horiz-adv-x="79" />
<glyph unicode="&#x2013;" horiz-adv-x="1024" d="M205 512v205h614v-205h-614z" />
<glyph unicode="&#x2014;" horiz-adv-x="2048" d="M205 512v205h1638v-205h-1638z" />
<glyph unicode="&#x202f;" horiz-adv-x="290" />
<glyph unicode="&#x205f;" horiz-adv-x="362" />
<glyph unicode="&#x2122;" horiz-adv-x="2351" d="M1086 0v1434h112l439 -969l438 969h113v-1434h-113v1159l-387 -837h-51h-51l-388 837v-1159h-112zM41 1331v103h840v-103h-363v-1331h-112v1331h-365z" />
<glyph unicode="&#xe000;" horiz-adv-x="1004" d="M0 1005h1005v-1005h-1005v1005z" />
<glyph unicode="&#xfb01;" horiz-adv-x="1118" d="M827 1264v170h117v-170h-117zM829 0v1004h113v-1004h-113zM82 901v103h135v194q0 131 45 193.5t152 62.5q41 0 90 -5t78 -11l30 -4v-103q-106 18 -182 19q-57 0 -78.5 -39t-21.5 -113v-194h245v-103h-245v-901h-113v901h-135z" />
<glyph unicode="&#xfb02;" horiz-adv-x="1093" d="M817 0v1434h112v-1434h-112zM82 901v103h135v194q0 131 45 193.5t152 62.5q41 0 90 -5t78 -11l30 -4v-103q-106 18 -182 19q-57 0 -78.5 -39t-21.5 -113v-194h245v-103h-245v-901h-113v901h-135z" />
<glyph unicode="&#xfb03;" horiz-adv-x="1771" d="M1481 1264v170h117v-170h-117zM1483 0v1004h113v-1004h-113zM735 901v103h135v194q0 131 45 193.5t152 62.5q41 0 90 -5t78 -11l30 -4v-103q-106 18 -182 19q-57 0 -78.5 -39t-21.5 -113v-194h245v-103h-245v-901h-113v901h-135zM82 901v103h135v194q0 131 45 193.5 t152 62.5q41 0 90 -5t78 -11l30 -4v-103q-106 18 -182 19q-57 0 -78.5 -39t-21.5 -113v-194h245v-103h-245v-901h-113v901h-135z" />
<glyph unicode="&#xfb04;" horiz-adv-x="1746" d="M1471 0v1434h112v-1434h-112zM735 901v103h135v194q0 131 45 193.5t152 62.5q41 0 90 -5t78 -11l30 -4v-103q-106 18 -182 19q-57 0 -78.5 -39t-21.5 -113v-194h245v-103h-245v-901h-113v901h-135zM82 901v103h135v194q0 131 45 193.5t152 62.5q41 0 90 -5t78 -11l30 -4 v-103q-106 18 -182 19q-57 0 -78.5 -39t-21.5 -113v-194h245v-103h-245v-901h-113v901h-135z" />
</font>
</defs>
</svg>
